صفحه 1 از 3 123 آخرینآخرین
نمایش نتایج: از 1 به 10 از 23

موضوع: دانلود ۱۲ فیلم از لورل و هاردی (دوبله فارسی) اختصاصي (OWMANIA)

  1. Top | #1

    http://owmania.org/Setare.pnghttp://owmania.org/Setare.pnghttp://owmania.org/Setare.pnghttp://owmania.org/Setare.pnghttp://owmania.org/Setare1.png
    امتیاز: 6,509 ، سطح: 52
    پیشروی سطح: %80 ، امتیاز مورد نیاز برای رسیدن به سطح بعدی: 41
    فعالیت کل: %0
    .
     

    تاریخ عضویت
    Sep 2010
    عنوان کاربر
    Member
    میانگین پست در روز
    0.64
    محل سکونت
    USA
    سن
    21
    نوشته ها
    899
    امتیاز
    6,509
    سطح
    52
    Post Thanks / Like
    Post Thanks / Like
    بخش مورد علاقه تیمهای فوتبال
    بخش مورد علاقه
    WWE
    دستاورد ها:
    Three FriendsTagger First ClassCreated Album pictures10000 Experience PointsOverdrive

    پیش فرض دانلود ۱۲ فیلم از لورل و هاردی (دوبله فارسی) اختصاصي (OWMANIA)





    لورل و هاردی (به انگلیسی: Laurel and Hardy) نام زوج کمدین مشهور دهه‌های بیست تا پنجاه سینمای آمریکا است.



    سلام دوستان این مجموعه دارای ۱۲ قسمت با دوبله فارسی میباشد هر روز یه قسمت اپ می کنم لطفا لایک یادتون نره موفق باشید


    عکس بنده در سامرسلم 13


    [برای مشاهده لینک ها شما باید عضو سایت باشید برای عضویت در سایت بر روی اینجا کلیک بکنید]

  2. Top | #2

    http://owmania.org/Setare.pnghttp://owmania.org/Setare.pnghttp://owmania.org/Setare.pnghttp://owmania.org/Setare.pnghttp://owmania.org/Setare1.png
    امتیاز: 6,509 ، سطح: 52
    پیشروی سطح: %80 ، امتیاز مورد نیاز برای رسیدن به سطح بعدی: 41
    فعالیت کل: %0
    .
     

    تاریخ عضویت
    Sep 2010
    عنوان کاربر
    Member
    میانگین پست در روز
    0.64
    محل سکونت
    USA
    سن
    21
    نوشته ها
    899
    امتیاز
    6,509
    سطح
    52
    Post Thanks / Like
    Post Thanks / Like
    بخش مورد علاقه تیمهای فوتبال
    بخش مورد علاقه
    WWE
    دستاورد ها:
    Three FriendsTagger First ClassCreated Album pictures10000 Experience PointsOverdrive

    پیش فرض

    دانلود قسمت: دختر کلی





    کد:
    General Format : Flash Video File size : 358 MiB Duration : 58mn 4s Overall bit rate : 862 Kbps Video Format : Sorenson Spark Codec ID : 2 Duration : 58mn 4s Bit rate : 790 Kbps Width : 480 pixels Height : 320 pixels Display aspect ratio : 3:2 Frame rate mode : Constant Frame rate : 25.000 fps Bit depth : 8 bits Bits/(Pixel*Frame) : 0.206 Stream size : 329 MiB (92%) Audio Format : MPEG Audio Format version : Version 2 Format profile : Layer 3 Mode : Joint stereo Mode extension : MS Stereo Codec ID : 2 Codec ID/Hint : MP3 Duration : 58mn 4s Bit rate mode : Constant Bit rate : 64.0 Kbps Channel(s) : 2 channels Sampling rate : 22.05 KHz Compression mode : Lossy Stream size : 28.6 MiB (8%)



    [برای مشاهده لینک ها شما باید عضو سایت باشید برای عضویت در سایت بر روی اینجا کلیک بکنید]

    [برای مشاهده لینک ها شما باید عضو سایت باشید برای عضویت در سایت بر روی اینجا کلیک بکنید]


    ویرایش توسط King OF kings : November 1st, 2011 در ساعت 23:56
    عکس بنده در سامرسلم 13


    [برای مشاهده لینک ها شما باید عضو سایت باشید برای عضویت در سایت بر روی اینجا کلیک بکنید]

  3. Top | #3

    http://owmania.org/Setare.pnghttp://owmania.org/Setare.pnghttp://owmania.org/Setare.pnghttp://owmania.org/Setare.pnghttp://owmania.org/Setare1.png
    امتیاز: 6,509 ، سطح: 52
    پیشروی سطح: %80 ، امتیاز مورد نیاز برای رسیدن به سطح بعدی: 41
    فعالیت کل: %0
    .
     

    تاریخ عضویت
    Sep 2010
    عنوان کاربر
    Member
    میانگین پست در روز
    0.64
    محل سکونت
    USA
    سن
    21
    نوشته ها
    899
    امتیاز
    6,509
    سطح
    52
    Post Thanks / Like
    Post Thanks / Like
    بخش مورد علاقه تیمهای فوتبال
    بخش مورد علاقه
    WWE
    دستاورد ها:
    Three FriendsTagger First ClassCreated Album pictures10000 Experience PointsOverdrive

    پیش فرض

    دانلود قسمت: این به اون در




    کد:
    General Format : Flash Video File size : 272 MiB Duration : 1h 2mn Overall bit rate : 607 Kbps Video Format : Sorenson Spark Codec ID : 2 Duration : 1h 2mn Bit rate : 535 Kbps Width : 352 pixels Height : 288 pixels Display aspect ratio : 1.222 Frame rate mode : Constant Frame rate : 25.000 fps Standard : PAL Bit depth : 8 bits Bits/(Pixel*Frame) : 0.211 Stream size : 241 MiB (89%) Audio Format : MPEG Audio Format version : Version 2 Format profile : Layer 3 Mode : Joint stereo Mode extension : MS Stereo Codec ID : 2 Codec ID/Hint : MP3 Duration : 1h 2mn Bit rate mode : Constant Bit rate : 64.0 Kbps Channel(s) : 2 channels Sampling rate : 22.05 KHz Compression mode : Lossy Stream size : 30.9 MiB (11%)




    [برای مشاهده لینک ها شما باید عضو سایت باشید برای عضویت در سایت بر روی اینجا کلیک بکنید]

    [برای مشاهده لینک ها شما باید عضو سایت باشید برای عضویت در سایت بر روی اینجا کلیک بکنید]


    ویرایش توسط King OF kings : November 1st, 2011 در ساعت 23:55
    عکس بنده در سامرسلم 13


    [برای مشاهده لینک ها شما باید عضو سایت باشید برای عضویت در سایت بر روی اینجا کلیک بکنید]

  4. Top | #4

    http://owmania.org/Setare.pnghttp://owmania.org/Setare.pnghttp://owmania.org/Setare.pnghttp://owmania.org/Setare.pnghttp://owmania.org/Setare1.png
    امتیاز: 6,509 ، سطح: 52
    پیشروی سطح: %80 ، امتیاز مورد نیاز برای رسیدن به سطح بعدی: 41
    فعالیت کل: %0
    .
     

    تاریخ عضویت
    Sep 2010
    عنوان کاربر
    Member
    میانگین پست در روز
    0.64
    محل سکونت
    USA
    سن
    21
    نوشته ها
    899
    امتیاز
    6,509
    سطح
    52
    Post Thanks / Like
    Post Thanks / Like
    بخش مورد علاقه تیمهای فوتبال
    بخش مورد علاقه
    WWE
    دستاورد ها:
    Three FriendsTagger First ClassCreated Album pictures10000 Experience PointsOverdrive

    پیش فرض

    دانلود قسمت: گشت نیمه شب





    کد:
    General Format : Flash Video File size : 381 MiB Duration : 1h 1mn Overall bit rate : 862 Kbps Video Format : Sorenson Spark Codec ID : 2 Duration : 1h 1mn Bit rate : 790 Kbps Width : 480 pixels Height : 320 pixels Display aspect ratio : 3:2 Frame rate mode : Constant Frame rate : 25.000 fps Bit depth : 8 bits Bits/(Pixel*Frame) : 0.206 Stream size : 350 MiB (92%) Audio Format : MPEG Audio Format version : Version 2 Format profile : Layer 3 Mode : Joint stereo Mode extension : MS Stereo Codec ID : 2 Codec ID/Hint : MP3 Duration : 1h 1mn Bit rate mode : Constant Bit rate : 64.0 Kbps Channel(s) : 2 channels Sampling rate : 22.05 KHz Compression mode : Lossy Stream size : 30.4 MiB (8%) Writing library : LAME3.96.1



    [برای مشاهده لینک ها شما باید عضو سایت باشید برای عضویت در سایت بر روی اینجا کلیک بکنید]

    [برای مشاهده لینک ها شما باید عضو سایت باشید برای عضویت در سایت بر روی اینجا کلیک بکنید]


    ویرایش توسط King OF kings : November 1st, 2011 در ساعت 23:53
    عکس بنده در سامرسلم 13


    [برای مشاهده لینک ها شما باید عضو سایت باشید برای عضویت در سایت بر روی اینجا کلیک بکنید]

  5. Top | #5

    http://owmania.org/Setare.pnghttp://owmania.org/Setare1.pnghttp://owmania.org/Setare1.pnghttp://owmania.org/Setare1.pnghttp://owmania.org/Setare1.png
    امتیاز: 2,484 ، سطح: 30
    پیشروی سطح: %23 ، امتیاز مورد نیاز برای رسیدن به سطح بعدی: 116
    فعالیت کل: %0
    This user has no status.
     

    تاریخ عضویت
    May 2011
    عنوان کاربر
    Member
    میانگین پست در روز
    0.02
    محل سکونت
    کرج
    نوشته ها
    24
    امتیاز
    2,484
    سطح
    30
    Post Thanks / Like
    Post Thanks / Like
    بخش مورد علاقه تیمهای فوتبال
    بخش مورد علاقه
    WWE
    دستاورد ها:
    Tagger First Class1000 Experience PointsVeteran

    پیش فرض

    اقا دمت گرم .
    به خدا با این تایپیکت خیلی حال دادی.
    خسته نباشی عزیز.
    فقط جان من تایپیکو یهو ول نکن و اگه میشه کل 12 تا فیلمو بذار.
    خدا به همرات...

    من انسان بزرگی هستم... آنقدر بزرگ که وقتی قلبم را شکست,گریه نکردم !!! من انسان کوچکی هستم ... آنقدر کوچک که وقتی غرورم را شکست ... شکایت نکردم,اما من انسان دلسوزی هستم ... آنقدر که دلم برایش می سوزد ... وقتی که او را با دیگری می بینم, که لیاقت عشق اش را ندارد ... .

  6. Top | #6

    http://owmania.org/Setare.pnghttp://owmania.org/Setare.pnghttp://owmania.org/Setare.pnghttp://owmania.org/Setare.pnghttp://owmania.org/Setare1.png
    امتیاز: 6,509 ، سطح: 52
    پیشروی سطح: %80 ، امتیاز مورد نیاز برای رسیدن به سطح بعدی: 41
    فعالیت کل: %0
    .
     

    تاریخ عضویت
    Sep 2010
    عنوان کاربر
    Member
    میانگین پست در روز
    0.64
    محل سکونت
    USA
    سن
    21
    نوشته ها
    899
    امتیاز
    6,509
    سطح
    52
    Post Thanks / Like
    Post Thanks / Like
    بخش مورد علاقه تیمهای فوتبال
    بخش مورد علاقه
    WWE
    دستاورد ها:
    Three FriendsTagger First ClassCreated Album pictures10000 Experience PointsOverdrive

    پیش فرض


    دانلود قسمت: لورل و هاردی به سوی غرب






    کد:
    General Format : Flash Video File size : 352 MiB Duration : 57mn 2s Overall bit rate : 862 Kbps Video Format : Sorenson Spark Codec ID : 2 Duration : 57mn 2s Bit rate : 790 Kbps Width : 480 pixels Height : 320 pixels Display aspect ratio : 3:2 Frame rate mode : Constant Frame rate : 25.000 fps Bit depth : 8 bits Bits/(Pixel*Frame) : 0.206 Stream size : 324 MiB (92%) Audio Format : MPEG Audio Format version : Version 2 Format profile : Layer 3 Mode : Joint stereo Mode extension : MS Stereo Codec ID : 2 Codec ID/Hint : MP3 Duration : 57mn 2s Bit rate mode : Constant Bit rate : 64.0 Kbps Channel(s) : 2 channels Sampling rate : 22.05 KHz Compression mode : Lossy Stream size : 28.1 MiB (8%)



    [برای مشاهده لینک ها شما باید عضو سایت باشید برای عضویت در سایت بر روی اینجا کلیک بکنید]

    [برای مشاهده لینک ها شما باید عضو سایت باشید برای عضویت در سایت بر روی اینجا کلیک بکنید]


    ویرایش توسط King OF kings : November 1st, 2011 در ساعت 23:52
    عکس بنده در سامرسلم 13


    [برای مشاهده لینک ها شما باید عضو سایت باشید برای عضویت در سایت بر روی اینجا کلیک بکنید]

  7. Top | #7

    http://owmania.org/Setare.pnghttp://owmania.org/Setare.pnghttp://owmania.org/Setare.pnghttp://owmania.org/Setare.pnghttp://owmania.org/Setare1.png
    امتیاز: 6,509 ، سطح: 52
    پیشروی سطح: %80 ، امتیاز مورد نیاز برای رسیدن به سطح بعدی: 41
    فعالیت کل: %0
    .
     

    تاریخ عضویت
    Sep 2010
    عنوان کاربر
    Member
    میانگین پست در روز
    0.64
    محل سکونت
    USA
    سن
    21
    نوشته ها
    899
    امتیاز
    6,509
    سطح
    52
    Post Thanks / Like
    Post Thanks / Like
    بخش مورد علاقه تیمهای فوتبال
    بخش مورد علاقه
    WWE
    دستاورد ها:
    Three FriendsTagger First ClassCreated Album pictures10000 Experience PointsOverdrive

    پیش فرض

    دانلود قسمت: بیمارستان ولایت





    کد:
    General Format : Flash Video File size : 333 MiB Duration : 53mn 59s Overall bit rate : 862 Kbps Video Format : Sorenson Spark Codec ID : 2 Duration : 53mn 59s Bit rate : 790 Kbps Width : 480 pixels Height : 320 pixels Display aspect ratio : 3:2 Frame rate mode : Constant Frame rate : 25.000 fps Bit depth : 8 bits Bits/(Pixel*Frame) : 0.206 Stream size : 306 MiB (92%) Audio Format : MPEG Audio Format version : Version 2 Format profile : Layer 3 Mode : Joint stereo Mode extension : MS Stereo Codec ID : 2 Codec ID/Hint : MP3 Duration : 53mn 59s Bit rate mode : Constant Bit rate : 64.0 Kbps Channel(s) : 2 channels Sampling rate : 22.05 KHz Compression mode : Lossy Stream size : 26.6 MiB (8%)



    [برای مشاهده لینک ها شما باید عضو سایت باشید برای عضویت در سایت بر روی اینجا کلیک بکنید]

    [برای مشاهده لینک ها شما باید عضو سایت باشید برای عضویت در سایت بر روی اینجا کلیک بکنید]


    ویرایش توسط King OF kings : November 1st, 2011 در ساعت 23:51
    عکس بنده در سامرسلم 13


    [برای مشاهده لینک ها شما باید عضو سایت باشید برای عضویت در سایت بر روی اینجا کلیک بکنید]

  8. Top | #8

    http://owmania.org/Setare.pnghttp://owmania.org/Setare.pnghttp://owmania.org/Setare.pnghttp://owmania.org/Setare.pnghttp://owmania.org/Setare1.png
    امتیاز: 6,509 ، سطح: 52
    پیشروی سطح: %80 ، امتیاز مورد نیاز برای رسیدن به سطح بعدی: 41
    فعالیت کل: %0
    .
     

    تاریخ عضویت
    Sep 2010
    عنوان کاربر
    Member
    میانگین پست در روز
    0.64
    محل سکونت
    USA
    سن
    21
    نوشته ها
    899
    امتیاز
    6,509
    سطح
    52
    Post Thanks / Like
    Post Thanks / Like
    بخش مورد علاقه تیمهای فوتبال
    بخش مورد علاقه
    WWE
    دستاورد ها:
    Three FriendsTagger First ClassCreated Album pictures10000 Experience PointsOverdrive

    پیش فرض

    دانلود قسمت: جعبه موسیقی




    کد:
    General Format : Flash Video File size : 379 MiB Duration : 1h 1mn Overall bit rate : 862 Kbps Video Format : Sorenson Spark Codec ID : 2 Duration : 1h 1mn Bit rate : 790 Kbps Width : 480 pixels Height : 320 pixels Display aspect ratio : 3:2 Frame rate mode : Constant Frame rate : 25.000 fps Bit depth : 8 bits Bits/(Pixel*Frame) : 0.206 Stream size : 348 MiB (92%) Audio Format : MPEG Audio Format version : Version 2 Format profile : Layer 3 Mode : Joint stereo Mode extension : MS Stereo Codec ID : 2 Codec ID/Hint : MP3 Duration : 1h 1mn Bit rate mode : Constant Bit rate : 64.0 Kbps Channel(s) : 2 channels Sampling rate : 22.05 KHz Compression mode : Lossy Stream size : 30.2 MiB (8%)



    [برای مشاهده لینک ها شما باید عضو سایت باشید برای عضویت در سایت بر روی اینجا کلیک بکنید]

    [برای مشاهده لینک ها شما باید عضو سایت باشید برای عضویت در سایت بر روی اینجا کلیک بکنید]


    عکس بنده در سامرسلم 13


    [برای مشاهده لینک ها شما باید عضو سایت باشید برای عضویت در سایت بر روی اینجا کلیک بکنید]

  9. Top | #9

    http://owmania.org/Setare.pnghttp://owmania.org/Setare.pnghttp://owmania.org/Setare.pnghttp://owmania.org/Setare.pnghttp://owmania.org/Setare1.png
    امتیاز: 6,509 ، سطح: 52
    پیشروی سطح: %80 ، امتیاز مورد نیاز برای رسیدن به سطح بعدی: 41
    فعالیت کل: %0
    .
     

    تاریخ عضویت
    Sep 2010
    عنوان کاربر
    Member
    میانگین پست در روز
    0.64
    محل سکونت
    USA
    سن
    21
    نوشته ها
    899
    امتیاز
    6,509
    سطح
    52
    Post Thanks / Like
    Post Thanks / Like
    بخش مورد علاقه تیمهای فوتبال
    بخش مورد علاقه
    WWE
    دستاورد ها:
    Three FriendsTagger First ClassCreated Album pictures10000 Experience PointsOverdrive

    پیش فرض

    دانلود قسمت: نخاله ها در دریا




    کد:
    General Format : Flash Video File size : 353 MiB Duration : 57mn 23s Overall bit rate : 860 Kbps Video Format : Sorenson Spark Codec ID : 2 Duration : 57mn 23s Bit rate : 790 Kbps Width : 480 pixels Height : 320 pixels Display aspect ratio : 3:2 Frame rate mode : Constant Frame rate : 25.000 fps Bit depth : 8 bits Bits/(Pixel*Frame) : 0.206 Stream size : 325 MiB (92%) Audio Format : MPEG Audio Format version : Version 2 Format profile : Layer 3 Mode : Joint stereo Mode extension : MS Stereo Codec ID : 2 Codec ID/Hint : MP3 Duration : 57mn 23s Bit rate mode : Constant Bit rate : 64.0 Kbps Channel(s) : 2 channels Sampling rate : 22.05 KHz Compression mode : Lossy Stream size : 28.3 MiB (8%)


    [برای مشاهده لینک ها شما باید عضو سایت باشید برای عضویت در سایت بر روی اینجا کلیک بکنید]

    [برای مشاهده لینک ها شما باید عضو سایت باشید برای عضویت در سایت بر روی اینجا کلیک بکنید]


    ویرایش توسط King OF kings : November 2nd, 2011 در ساعت 22:15
    عکس بنده در سامرسلم 13


    [برای مشاهده لینک ها شما باید عضو سایت باشید برای عضویت در سایت بر روی اینجا کلیک بکنید]

  10. Top | #10

    http://owmania.org/Setare.pnghttp://owmania.org/Setare.pnghttp://owmania.org/Setare.pnghttp://owmania.org/Setare.pnghttp://owmania.org/Setare1.png
    امتیاز: 6,509 ، سطح: 52
    پیشروی سطح: %80 ، امتیاز مورد نیاز برای رسیدن به سطح بعدی: 41
    فعالیت کل: %0
    .
     

    تاریخ عضویت
    Sep 2010
    عنوان کاربر
    Member
    میانگین پست در روز
    0.64
    محل سکونت
    USA
    سن
    21
    نوشته ها
    899
    امتیاز
    6,509
    سطح
    52
    Post Thanks / Like
    Post Thanks / Like
    بخش مورد علاقه تیمهای فوتبال
    بخش مورد علاقه
    WWE
    دستاورد ها:
    Three FriendsTagger First ClassCreated Album pictures10000 Experience PointsOverdrive

    پیش فرض

    دانلود قسمت: ادم کش




    کد:
    General Complete name : Laurel and Hardy-Adam Kosh-By [king-OF-kings] (OWmania).flv Format : Flash Video File size : 282 MiB Duration : 1h 4mn Overall bit rate : 607 Kbps Video Format : Sorenson Spark Codec ID : 2 Duration : 1h 4mn Bit rate : 535 Kbps Width : 352 pixels Height : 288 pixels Display aspect ratio : 1.222 Frame rate mode : Constant Frame rate : 25.000 fps Standard : PAL Bit depth : 8 bits Bits/(Pixel*Frame) : 0.211 Stream size : 250 MiB (89%) Audio Format : MPEG Audio Format version : Version 2 Format profile : Layer 3 Mode : Joint stereo Mode extension : MS Stereo Codec ID : 2 Codec ID/Hint : MP3 Duration : 1h 4mn Bit rate mode : Constant Bit rate : 64.0 Kbps Channel(s) : 2 channels Sampling rate : 22.05 KHz Compression mode : Lossy Stream size : 32.0 MiB (11%)





    [برای مشاهده لینک ها شما باید عضو سایت باشید برای عضویت در سایت بر روی اینجا کلیک بکنید]

    [برای مشاهده لینک ها شما باید عضو سایت باشید برای عضویت در سایت بر روی اینجا کلیک بکنید]


    عکس بنده در سامرسلم 13


    [برای مشاهده لینک ها شما باید عضو سایت باشید برای عضویت در سایت بر روی اینجا کلیک بکنید]

صفحه 1 از 3 123 آخرینآخرین

موضوعات مشابه

  1. پاسخ: 4
    آخرين نوشته: February 8th, 2013, 12:13
  2. × خــطـ رو خــطـ OWMania ×
    توسط Naxxramas در انجمن Social Forums
    پاسخ: 14
    آخرين نوشته: August 20th, 2012, 20:36
  3. !!$$ ## تورنومت مجازی (owmania (2 - مرحله سوم ## $$!!
    توسط [ E M I N Ǝ M ] در انجمن بحث و گفت و گو
    پاسخ: 8
    آخرين نوشته: July 27th, 2011, 03:52
  4. ××××نقد فيلم جرم اختصاصي (OWMANIA) ××××××
    توسط S.i.S در انجمن نقد و بررسي
    پاسخ: 0
    آخرين نوشته: July 12th, 2011, 03:04
  5. تويـــيتر OwMania
    توسط A-R-D-A-L در انجمن اسپم آباد
    پاسخ: 1
    آخرين نوشته: July 6th, 2011, 14:03

کلمات کلیدی این موضوع

مجوز های ارسال و ویرایش

  • شما نمیتوانید موضوع جدیدی ارسال کنید
  • شما امکان ارسال پاسخ را ندارید
  • شما نمیتوانید فایل پیوست کنید.
  • شما نمیتوانید پست های خود را ویرایش کنید
  •